&title=[宴] チルノのパーフェクトさんすう教室
&artist=ARM+夕野ヨシミ(IOSYS)feat. miko
&wholebpm=175
&demo_seek=77.6
&demo_len=22.4
&lv_7=蛸
&inote_7=(175.0){1},,,
{1}1h[4:1]/8h[4:1],,,
{4},3h[8:1]/4h[8:1]/5h[8:1]/6h[8:1],,,{1},,
{1}4h[2:3]/6h[2:3],
{1}5h[2:1],
{1}3h[2:3]/5h[2:3],
{1}4h[2:1],
{1}3h[2:3]/6h[2:3],
{1}4h[2:1]/5h[2:1],
{2}2h[2:3],7h[1:1],
{1}1h[2:1]/8h[2:1],
{8}1h[4:3]/7h[4:3],,,8h[8:3],,,,,
{8}2h[4:3]/8h[4:3],,,1h[8:3],,,,,
{8}1h[4:3]/7h[4:3],,,8h[8:3],,,,,
{8}1h[4:1]/7h[4:1]/8h[4:1],,,1h[8:3]/2h[8:3]/8h[8:3],,,,,
{8}2h[4:3]/8h[4:3],,,1h[8:3],,,,,
{8}1h[4:3]/7h[4:3],,,8h[8:3],,,,,
{8}2h[4:3]/8h[4:3],,,1h[8:3],,,,,
{4}2h[4:3]/7h[4:3],8h[2:1],1h[4:1],,
{8}1h[4:3]/6h[4:3],,,7h[8:3]/8h[8:3],,,,,
{8}3h[4:3]/8h[4:3],,,1h[8:3]/2h[8:3],,,,,
{8}1h[4:3]/6h[4:3],,,7h[8:3]/8h[8:3],,,,,
{8}1h[4:1]/2h[4:1]/8h[4:1],,,1h[8:3]/7h[8:3]/8h[8:3],,,,,
{8}3h[4:3]/8h[4:3],,,1h[8:3]/2h[8:3],,,,,
{8}1h[4:3]/6h[4:3],,,7h[8:3]/8h[8:3],,,,,
{8}2h[2:3],,,7h[8:9],,,1h[1:1],,
{4}8h[4:3],,,2b/7b,
{2}6h[1:1],3h[2:1],
{1}4-1[2:1]*-2[2:1]*-8[2:1]/5-1[2:1]*-7[2:1]*-8[2:1],
{2}6h[2:3],3h[1:1],
{1}5h[2:1],
{2}7h[1:1],2h[2:1],
{1}8q3[2:1],
{2}2h[2:3]/7h[2:3],1,
{2}8,1/8,
{2}3h[1:1],6h[2:1],
{1}4w8[2:1]/5w1[2:1],
{2}4h[1:1],8h[2:1],
{1}1qq6[2:1]/5qq2[2:1],
{1}1v3[2:1]*-5[2:1]/8qq5[2:1],
{4}7h[4:3],2h[2:1],1h[4:1]/8h[4:1],,
{2}3h[4:1]/4h[4:1]/5h[4:1],4h[4:1]/5h[4:1]/6h[4:1],
{1}6w2[2:1]/7w3[2:1],
{2}6h[1:1],6,
{2}5h[1:1],5,
{2}4h[1:1],4,
{2}3h[1:1],3,
{4}4/5,4/5,3/4/5/6,3/4/5/6,
{4}2/3/6/7,2/3/6/7,1/2/7/8,1/2/7/8,
{2}1h[2:3]/8h[2:3],2h[1:1]/7h[1:1],
{1}3h[2:1]/6h[2:1],
{4}1h[2:3],2h[4:5],3h[1:1],4h[4:3],
{1}5h[2:1],
{4}8h[2:3],7h[4:5],6h[1:1],5h[4:3],
{1}4h[2:1],
{1}2^7[2:1]*qq7[2:1],
{1}6^3[2:1]*qq3[2:1],
{1}5-1[2:1]*-2[2:1]*-8[2:1],
{4}3h[2:1]/6h[2:1],4/5,4b/5b,,
{2}1h[1:1]/8h[1:1],2h[2:1]/7h[2:1],
{1}3q4[2:1]/6p5[2:1],
{2}1h[1:1]/8h[1:1],2h[2:1]/7h[2:1],
{1}3pp1[2:1]/6qq8[2:1],
{2}3h[2:7],7,
{2}7h[2:5],2,
{2}2h[2:3],8h[1:1],
{2},1b,
{8}1h[4:3]/7h[4:3],,,2h[8:3]/6h[8:3],,,,,
{8}2h[4:3]/8h[4:3],,,3h[8:3]/7h[8:3],,,,,
{8}1h[4:3]/7h[4:3],,,2h[8:3]/6h[8:3],,,,,
{8}2h[4:1]/3h[4:1]/7h[4:1]/8h[4:1],,,1h[4:1]/2h[4:1]/6h[4:1]/7h[4:1],,,,,
{8}2h[4:3]/8h[4:3],,,3h[8:3]/7h[8:3],,,,,
{8}1h[4:3]/7h[4:3],,,2h[8:3]/6h[8:3],,,,,
{8}2h[4:3]/8h[4:3],,,3h[8:3]/7h[8:3],,,,,
{8}1h[4:1]/2h[4:1]/6h[4:1]/7h[4:1],,,2h[4:1]/3h[4:1]/7h[4:1]/8h[4:1],,,,,
{8}1h[4:3]/2h[4:3]/6h[4:3]/7h[4:3],,,3h[8:3]/5h[8:3],,,,,
{8}2h[4:3]/3h[4:3]/7h[4:3]/8h[4:3],,,4h[8:3]/6h[8:3],,,,,
{8}1h[4:3]/2h[4:3]/6h[4:3]/7h[4:3],,,3h[8:3]/5h[8:3],,,,,
{8}2h[4:1]/3h[4:1]/7h[4:1]/8h[4:1],,,1h[4:1]/2h[4:1]/6h[4:1]/7h[4:1],,,,,
{8}2h[4:3]/3h[4:3]/7h[4:3]/8h[4:3],,,4h[8:3]/6h[8:3],,,,,
{8}1h[4:3]/2h[4:3]/6h[4:3]/7h[4:3],,,3h[8:3]/5h[8:3],,,,,
{8}7h[4:7],,,2h[8:11],,,8h[1:1],,
{4}1h[4:3],,,3b/6b,
E
